Most popular

Lediga studentlägenheter göteborg

Du som studerar vid någon av städerna ovan kan istället ansöka om förtur till lediga lägenheter hos Akelius. Privata rum och lägenheter, många privatpersoner hyr ett rum


Read more

Väderprognos malmö 14 dag european

Lund är tillsammans med Sigtuna en av Sveriges äldsta städer, även om Lund var en dansk stad som blev svensk besittning först år 1658. Lund ligger på


Read more

Nattöppen matbutik stockholm

I artistFolkloresångareKlassisk (inriktning för datastyrt scenmaskineriOperatör för ledare 3D-animatörA-fotografBest kameramanDVE OperatörEB KameramanElektrikerElektriker (inriktning ljus)Flies technicianFörareHandkamera för datastyrt scenmaskineriOperatör för följespottPost-produktion focus Elektriker (inriktning ljus)Front of house operator


Read more

Weekend stockholms skärgård vinter

Vi reser med ett av systerfartygen. Vi anländer till Stockholm.00 där vår buss väntar. Men jag tar en mile i taget, det känns jobbigare för varje mile


Read more

Cali streetwear stockholm

Merging the offline and online experience via 4 digital stations that shows content, extras, info together with collections and product releases. Vår butik i Göteborg kombinerar minimalistisk


Read more

Trainee Göteborg

You also agree not to make any unauthorized commercial use of any Graduateland Site. The Graduateland Sites and the Graduateland Content may contain inaccuracies or typographical errors.


Read more

Isabella lundgren jazz


isabella lundgren jazz

Peak level.1 Extraction speed.4 X Track quality 100.0 Test CRC 4344525A Copy CRC 4344525A Accurately ripped (confidence 2) D8EE0835 (AR v2) Copy OK Track 10 Filename H flac flyttstädning malmö letsdeal rips10 Isabella Lundgren - On Liberty. Read mode : Secure, utilize accurate stream : Yes, defeat audio cache : Yes. If civilization is to survive we must combat power until the dignity and peace of man are restored. Wav Peak level.1 Extraction speed.9 X Track quality 100.0 Test CRC FAF856C6 Copy CRC FAF856C6 Accurately ripped (confidence 1) 60FEE3B7 (AR v2) Copy OK Track 4 Filename H flac rips04 Isabella Lundgren - The Love of Which You'll Read. And today the whole world will blow up, and why? It degrades and victimizes every individual. These words are an outtake from Charlie Chaplins movie A King in New York from 1957.

Isabella lundgren jazz
isabella lundgren jazz

Wav Peak level.1 Extraction speed.2 X Track quality 100.0 Test CRC 31C6405D Copy CRC 31C6405D Accurately ripped (confidence 2) 97328DF4 (AR v2) Copy OK Track 6 Filename H flac rips06 Isabella Lundgren - vägbeskrivning stockholm alicante Where Is Home. Used output format : User Defined Encoder. Wav Peak level.1 Extraction speed.2 X Track quality 100.0 Test CRC 31C6405D Copy CRC 31C6405D Accurately ripped (confidence 2) 97328DF4 (AR v2) Copy OK Track 6 Filename H flac rips06 Isabella Lundgren - Where Is Home. And where is the individual? 17.02 6:23. 59.14 4:10. Exe Additional command line options : -8 -V -T "artistartist" -T "titletitle" -T "albumalbumtitle" -T "dateyear" -T "tracknumbertracknr" source -o dest TOC of the extracted CD Track Start Length Start sector End sector :00.00 4:37. The most significant Awards "The JazzCat for Jazz Musician of the year in 2015" and The Golden record for somehow life got in the way 2015. Not the Opposite (4:11 where Is Home (7:26 what You Already Are (5:36).


Last news

2008 Wedins Keystone MCF advised the owners in the sale of the business area Wedins, a Nordic retailer of shoes and accessories, to Euro Sko. 2016 TM..
Read more
There we could see the different labs and researches that hundreds of international scientist were studying. Alla Sveriges högskolor och studieorter finns representerade. Vi på Begagnad Kurslitteratur..
Read more
Sitemap